.
Авторизация | Регистрация

mytorrents.xyz

» » Udemy | Изучаем React.js 16.7 & Redux (2019) PCRec [H.264 / 720p-LQ] торрент скачать бесплатно


    Udemy | Изучаем React.js 16.7 & Redux (2019) PCRec [H.264 / 720p-LQ] торрент скачать бесплатно

    Дата: 8-11-2019, 05:00 | .torrent скачали: 0

    Udemy | Изучаем React.js 16.7 & Redux (2019) PCRec [H.264 / 720p-LQ]Автор (режиссер): Константин Голиченков
    Производство: Udemy
    Жанр: Программирование, JavaScript, React, Redux

    Описание

    В этом курсе автор расскажет про современную и актуальную версию React.js 16.7. Расскажет как использовать React вместе с Redux 4 и React-Router 4. Вы научитесь создавать Single Page Applications с возможностью регистрации и авторизации. Научитесь взаимодействовать с REST API. Использовать CSS-фреймворк Bootstrap 4. А так же загружать готовое приложение на бесплатный Firebase-хостинг и VPS-сервер.
    Продолжительность: 05: 52: 57
    Качество видео: PCRec
    Видео: AVC/H.264, 1280x720, ~259-1026 Kbps
    Аудио: AAC, 2 ch, 127-128 Kbps
    Общее
    Полное имя : .3. Основы React.js10. Роутинг с помощью React-Router.mp4
    Формат : MPEG-4
    Профиль формата : Base Media
    Идентификатор кодека : isom (isom/iso2/avc1/mp41)
    Размер файла : 41, 6 Мбайт
    Продолжительность : 6 м. 31 с.
    Общий поток : 891 Кбит/сек
    Программа кодирования : Lavf58.12.100
    Видео
    Идентификатор : 1
    Формат : AVC
    Формат/Информация : Advanced Video Codec
    Профиль формата : Main@L3.1
    Настройки формата : CABAC/4 Ref Frames
    Параметр CABAC формата : Да
    Параметр RefFrames формата : 4 кадра
    Параметр GOP формата : M=4, N=60
    Идентификатор кодека : avc1
    Идентификатор кодека/Информация : Advanced Video Coding
    Продолжительность : 6 м. 31 с.
    Битрейт : 754 Кбит/сек
    Номинальный битрейт : 3000 Кбит/сек
    Ширина : 1280 пикселей
    Высота : 720 пикселей
    Соотношение сторон : 16: 9
    Режим частоты кадров : Постоянный
    Частота кадров : 30, 000 кадров/сек
    Цветовое пространство : YUV
    Субдискретизация насыщенности : 4: 2: 0
    Битовая глубина : 8 бит
    Тип развёртки : Прогрессивная
    Бит/(Пиксели*Кадры) : 0.027
    Размер потока : 35, 2 Мбайт (85%)
    Библиотека кодирования : x264 core 148
    Настройки программы : cabac=1/ref=3/deblock=1: -1: -1/analyse=0x1: 0x111/me=umh/subme=6/psy=1/psy_rd=1.00: 0.15/mixed_ref=1/me_range=16/chroma_me=1/trellis=1/8x8dct=0/cqm=0/deadzone=21, 11/fast_pskip=1/chroma_qp_offset=-3/threads=22/lookahead_threads=3/sliced_threads=0/nr=0/decimate=1/interlaced=0/bluray_compat=0/constrained_intra=0/bframes=3/b_pyramid=2/b_adapt=1/b_bias=0/direct=1/weightb=1/open_gop=0/weightp=2/keyint=60/keyint_min=6/scenecut=0/intra_refresh=0/rc_lookahead=60/rc=cbr/mbtree=1/bitrate=3000/ratetol=1.0/qcomp=0.60/qpmin=0/qpmax=69/qpstep=4/vbv_maxrate=3000/vbv_bufsize=6000/nal_hrd=none/filler=0/ip_ratio=1.40/aq=1: 1.00
    Codec configuration box : avcC
    Аудио
    Идентификатор : 2
    Формат : AAC LC
    Формат/Информация : Advanced Audio Codec Low Complexity
    Идентификатор кодека : mp4a-40-2
    Продолжительность : 6 м. 31 с.
    Вид битрейта : Постоянный
    Битрейт : 128 Кбит/сек
    Каналы : 2 канала
    ChannelLayout : L R
    Частота : 48, 0 КГц
    Частота кадров : 46, 875 кадров/сек (1024 SPF)
    Метод сжатия : С потерями
    Размер потока : 5, 98 Мбайт (14%)
    Default : Да
    AlternateGroup/String : 1


    Udemy | Изучаем React.js 16.7 & Redux (2019) PCRec [H.264/720p-LQ]
    Рейтинг →
     (голосов: 1, оценка 3/5, голосовать можно 1 раз )

    Другие торренты по теме:

  • Udemy | Изучаем Социальную Инженерию с Нуля [Часть 1 из 9] (2017) PCRec [H.264 / 720p-LQ]
  • Udemy | Изучаем Социальную Инженерию с Нуля (2017) PCRec [H.264 / 720p-LQ] [EN]


    • Комментарии (0):

      Информация

      Информация

        Посетители, находящиеся в группе Гости, не могут оставлять комментарии в данной новости.

        ↓ Меню




        ↓ Опрос

        Вы добавили сайт в закладки?
        Да
        Нет


        Популярное