.
Авторизация | Регистрация

mytorrents.xyz

» » jsexpert | Понятный JavaScript [Advanced] (2018) PCRec [H.264 / 720p-LQ] торрент скачать бесплатно


    jsexpert | Понятный JavaScript [Advanced] (2018) PCRec [H.264 / 720p-LQ] торрент скачать бесплатно

    Дата: 8-11-2019, 05:00 | .torrent скачали: 0

    jsexpert | Понятный JavaScript [Advanced] (2018) PCRec [H.264 / 720p-LQ]Автор (режиссер): Евгений Калюжный
    Производство: jsexpert
    Жанр: Программирование, JavaScript

    Описание

    Курс Понятный JavaScript — это комплексная программа обучения, которая позволит тебе полностью изучить с нуля главный язык Frontend разработчика. Уже через 3 месяца ты будешь знать JavaScript на очень достойном уровне.
    Проверенный временем курс проведет вас от самых основ (история возникновения языка, типы данных, циклы, условия) до серьезных, продвинутых знаний (наследование, паттерны и ООП, ES6/ES7).
    Продолжительность: 12: 14: 14
    Качество видео: PCRec
    Видео: AVC/H.264, 1280x720, ~273-555 Kbps
    Аудио: AAC, 2 ch, 117-256 Kbps
    Общее
    Полное имя : .1 Объектно ориентированное программирование.mp4
    Формат : MPEG-4
    Профиль формата : Base Media
    Идентификатор кодека : isom (isom/iso2/avc1/mp41)
    Размер файла : 262 Мбайт
    Продолжительность : 57 м. 48 с.
    Общий поток : 633 Кбит/сек
    Программа кодирования : Lavf58.12.100
    Видео
    Идентификатор : 1
    Формат : AVC
    Формат/Информация : Advanced Video Codec
    Профиль формата : High@L3.2
    Настройки формата : CABAC/5 Ref Frames
    Параметр CABAC формата : Да
    Параметр RefFrames формата : 5 кадров
    Идентификатор кодека : avc1
    Идентификатор кодека/Информация : Advanced Video Coding
    Продолжительность : 57 м. 48 с.
    Битрейт : 394 Кбит/сек
    Ширина : 1280 пикселей
    Высота : 720 пикселей
    Соотношение сторон : 16: 9
    Режим частоты кадров : Переменный
    Частота кадров : 23, 976 (23976/1000) кадра/сек
    Минимальная частота кадров : 4, 798 кадров/сек
    Максимальная частота кадров : 24000, 000 кадров/сек
    Цветовое пространство : YUV
    Субдискретизация насыщенности : 4: 2: 0
    Битовая глубина : 8 бит
    Тип развёртки : Прогрессивная
    Бит/(Пиксели*Кадры) : 0.018
    Размер потока : 163 Мбайт (62%)
    Библиотека кодирования : x264 core 155 r10 b00bcaf
    Настройки программы : cabac=1/ref=5/deblock=1: 0: 0/analyse=0x3: 0x113/me=hex/subme=8/psy=1/psy_rd=1.00: 0.00/mixed_ref=1/me_range=16/chroma_me=1/trellis=2/8x8dct=1/cqm=0/deadzone=21, 11/fast_pskip=1/chroma_qp_offset=-2/threads=22/lookahead_threads=3/sliced_threads=0/nr=0/decimate=1/interlaced=0/bluray_compat=0/stitchable=1/constrained_intra=0/bframes=3/b_pyramid=2/b_adapt=2/b_bias=0/direct=3/weightb=1/open_gop=0/weightp=2/keyint=infinite/keyint_min=23/scenecut=40/intra_refresh=0/rc_lookahead=50/rc=crf/mbtree=1/crf=20.0/qcomp=0.60/qpmin=5/qpmax=69/qpstep=4/vbv_maxrate=2750/vbv_bufsize=7500/crf_max=0.0/nal_hrd=none/filler=0/ip_ratio=1.40/aq=1: 1.00
    Цветовой диапазон : Limited
    Основные цвета : BT.709
    Характеристики трансфера : BT.709
    Коэффициенты матрицы : BT.709
    Codec configuration box : avcC
    Аудио
    Идентификатор : 2
    Формат : AAC LC
    Формат/Информация : Advanced Audio Codec Low Complexity
    Идентификатор кодека : mp4a-40-2
    Продолжительность : 57 м. 48 с.
    Вид битрейта : Постоянный
    Битрейт : 235 Кбит/сек
    Каналы : 2 канала
    ChannelLayout : L R
    Частота : 48, 0 КГц
    Частота кадров : 46, 875 кадров/сек (1024 SPF)
    Метод сжатия : С потерями
    Размер потока : 97, 3 Мбайт (37%)
    Default : Да
    AlternateGroup/String : 1
    Скриншоты:


    Время раздачи: 24/7 (круглосуточно) (до появления первых 3-5 скачавших)

    jsexpert | Понятный JavaScript [Advanced] (2018) PCRec [H.264/720p-LQ]
    Рейтинг →
     (голосов: 1, оценка 3/5, голосовать можно 1 раз )

    Другие торренты по теме:

  • jsexpert | Понятный JavaScript [Beginner] (2017) PCRec [H.264 / 1080p-LQ]
  • jsexpert | Понятный JavaScript [Middle] (2018) PCRec [H.264 / 720p-LQ]


    • Комментарии (0):

      Информация

      Информация

        Посетители, находящиеся в группе Гости, не могут оставлять комментарии в данной новости.

        ↓ Меню




        ↓ Опрос

        Вы добавили сайт в закладки?
        Да
        Нет


        Популярное