.
Авторизация | Регистрация

mytorrents.xyz

» » Горе от ума (1977) DVD5 (Малый Театр) торрент скачать бесплатно


    Горе от ума (1977) DVD5 (Малый Театр) торрент скачать бесплатно

    Дата: 10-02-2019, 05:00 | .torrent скачали: 106

    Горе от ума (1977) DVD5 (Малый Театр)Производство: СССР
    Жанр: Мелодрама
    Режиссер: Михаил Царев

    Актеры
    Михаил Царев, Нелли Корниенко, Евгения Глушенко, Борис Клюев, Виталий Соломин, Роман Филиппов, Лилия Юдина, Николай Рыжов, Муза Седова, Наталья Швец

    Описание

    В дом сановного московского барина Фамусова приезжает Чацкий, возвратившийся из дальних странствий. Он спешит увидеть Софью, дочь Фамусова, которую любит с давних пор. Но Софья холодно встречает пылкие излияния Чацкого. Ее сентиментальную натуру, взлелеянную французскими романами, оскорбляют проникнутые горечью и негодованием речи Чацкого. Он обличает взяточничество, низкопоклонство, невежество и холуйство. Фамусов, Скалозуб, Молчалин, Загорецкий, Репетилов и другие мстят Чацкому, объявив его безумным. В довершение всего Чацкий узнает, что Софья отдала свое сердце ничтожному Молчалину.

    Возраст: 0+ (для любой зрительской аудитории)
    Продолжительность: 01: 16: 50 + 01: 38: 30
    Качество видео: DVD5
    Перевод: Не требуется (русский)
    Субтитры: Отсутствуют
    Доп. материалы: Биографии, Из истории театра, Смотрите на DVD
    Видео: MPEG-2, 720x576@768x576 (PAL 4: 3), ~3400 Kbps
    Аудио: AC3 2.0, 192 KbpsTitle: Горе от ума 1977 DVD5
    Size: 4.37 Gb ( 4 580 894, 00 KBytes ) - DVD-5
    Enabled regions: 1, 2, 3, 4, 5, 6, 7, 8
    VTS_01 :
    Play Length: 00: 00: 12
    Video: PAL 4: 3 (720x576) VBR
    Audio:
    Not specified (Dolby AC3, 2 ch)
    VTS_02 :
    Play Length: 00: 00: 26
    Video: PAL 4: 3 (720x576) VBR
    Audio:
    Not specified (Dolby AC3, 2 ch)
    VTS_03 :
    Play Length: 01: 16: 50
    Video: PAL 4: 3 (720x576) VBR
    Audio:
    Russian (Dolby AC3, 2 ch)
    VTS_04 :
    Play Length: 01: 38: 30
    Video: PAL 4: 3 (720x576) VBR
    Audio:
    Russian (Dolby AC3, 2 ch)
    Общее
    Полное имя : V: TorrentsГоре от ума 1977 DVD5VIDEO_TSVTS_04_2.VOB
    Формат : MPEG-PS
    Размер файла : 1024 Мбайт
    Продолжительность : 39 м. 4 с.
    Режим общего битрейта : Переменный
    Общий поток : 3663 Кбит/сек
    Видео
    Идентификатор : 224 (0xE0)
    Формат : MPEG Video
    Версия формата : Version 2
    Профиль формата : Main@Main
    Настройки формата : CustomMatrix/BVOP
    Параметр BVOP формата : Да
    Параметр матрицы формата : Выборочная
    Параметр GOP формата : M=3, N=15
    Структура изображения : Frame
    Продолжительность : 39 м. 4 с.
    Вид битрейта : Переменный
    Битрейт : 3398 Кбит/сек
    Максимальный битрейт : 6000 Кбит/сек
    Ширина : 720 пикселей
    Высота : 576 пикселей
    Соотношение сторон : 4: 3
    Частота кадров : 25, 000 кадров/сек
    Стандарт вещания : PAL
    Цветовое пространство : YUV
    Субдискретизация насыщенности : 4: 2: 0
    Битовая глубина : 8 бит
    Тип развёртки : Чересстрочная
    Порядок развёртки : Верхнее поле первое
    Метод сжатия : С потерями
    Бит/(Пиксели*Кадры) : 0.328
    Временной код первого кадра : 00: 40: 40: 24
    Оригинал временного кода : Group of pictures t_head
    Размер потока : 950 Мбайт (93%)
    Аудио
    Идентификатор : 189 (0xBD)-128 (0x80)
    Формат : AC-3
    Формат/Информация : Audio Coding 3
    Параметр Endianness формата : Big
    Режим смешивания : DVD-Video
    Продолжительность : 39 м. 4 с.
    Вид битрейта : Постоянный
    Битрейт : 192 Кбит/сек
    Каналы : 2 канала
    Расположение каналов : Front: L R
    Частота : 48, 0 КГц
    Частота кадров : 31, 250 кадров/сек (1536 SPF)
    Битовая глубина : 16 бит
    Метод сжатия : С потерями
    Задержка видео : -752 мс.
    Размер потока : 53, 7 Мбайт (5%)
    ServiceKind/String : Complete Main
    Меню


    Горе от ума (1977) DVD5 (Малый Театр)
    Рейтинг →
     (голосов: 1, оценка 3/5, голосовать можно 1 раз )

    Другие торренты по теме:

  • И в горе, и в радости (2015) SATRip (серии 1-4 из 4) скачать через торрент бесплатно
  • Праздничный концерт на Поклонной горе (08.05.2015) HDTV [H.264 / 1080i-LQ] скачать через торрент бесплатно
  • Праздничный концерт на Поклонной горе (08.05.2015) HDTVRip скачать через торрент бесплатно
  • Андрей Васильев | Замок на Вороньей горе (2016) [FB2]
  • Андрей Васильев | Замок на Вороньей горе (2016) [MP3]
  • Эдвард Радзинский | На Руси от ума одно горе (2015) [MP3]
  • Лидия Чарская | Тасино горе (1909) [PDF]
  • Татьяна Минасян, Юрий Максимов | Горе человеческое - суицидальные рассказы. (2016) [MP3]


    • Комментарии (0):

      Информация

      Информация

        Посетители, находящиеся в группе Гости, не могут оставлять комментарии в данной новости.

        ↓ Меню




        ↓ Опрос

        Вы добавили сайт в закладки?
        Да
        Нет


        Популярное